お知らせ

  • 利用規約を守って投稿してください。また、よくある質問および投稿の手引きも参照してください。
  • メッセージの投稿にはアカウントが必要です。未登録の方は、ユーザ登録ページからアカウントを作成することができます。

#1 2019-01-15 08:28:51

hotohoto
メンバ
登録日: 2009-07-04

ffmpeg でエラーが出る。出来る時もあれば出来ない時もあり

hotohoto です。いつももお世話になります。
さっそくですが、画面キャプチャーした動画を変換しようとしました。
このようなコマンド
ところが、これですとエラーが出ます。

コード:

ffmpeg -i 入力ファイル名.mp4 出力ファイル名.mov
 (なお、mov のところは m4v とか何でも良いのですが)

質問:
なぜでしょうか? あるいは何か足りないコマンドがあるのでしょうか?

情報:
なお、以下のような場合はエラーはめったに起きません。
・youtubeをダウンロードしたもの

目的:
なお、目的は自分の操作を記録させておく用途、備忘録画です。
操作画面の遷移は遅いので、0.5fpsでも良いのです。データサイズの小さくするためです。

稚拙な対策候補:
最初に比較的早いfpsで画面取得してから、低いfpsに変換するほうが良いのかも考えています。
其の方法はチョットわからない。。。

いま気がついた:
AVの保存がmp3に成っているようです。
これがイケナイのかな?
accとかが標準でしたっけ?


ご意見頂けたら幸いです




下記は エラーの出たコード:

コード:

ffmpeg version 3.4.4-0ubuntu0.18.04.1 Copyright (c) 2000-2018 the FFmpeg developers
  built with gcc 7 (Ubuntu 7.3.0-16ubuntu3)
  configuration: --prefix=/usr --extra-version=0ubuntu0.18.04.1 --toolchain=hardened --libdir=/usr/lib/x86_64-linux-gnu --incdir=/usr/include/x86_64-linux-gnu --enable-gpl --disable-stripping --enable-avresample --enable-avisynth --enable-gnutls --enable-ladspa --enable-libass --enable-libbluray --enable-libbs2b --enable-libcaca --enable-libcdio --enable-libflite --enable-libfontconfig --enable-libfreetype --enable-libfribidi --enable-libgme --enable-libgsm --enable-libmp3lame --enable-libmysofa --enable-libopenjpeg --enable-libopenmpt --enable-libopus --enable-libpulse --enable-librubberband --enable-librsvg --enable-libshine --enable-libsnappy --enable-libsoxr --enable-libspeex --enable-libssh --enable-libtheora --enable-libtwolame --enable-libvorbis --enable-libvpx --enable-libwavpack --enable-libwebp --enable-libx265 --enable-libxml2 --enable-libxvid --enable-libzmq --enable-libzvbi --enable-omx --enable-openal --enable-opengl --enable-sdl2 --enable-libdc1394 --enable-libdrm --enable-libiec61883 --enable-chromaprint --enable-frei0r --enable-libopencv --enable-libx264 --enable-shared
  WARNING: library configuration mismatch
  avcodec     configuration: --prefix=/usr --extra-version=0ubuntu0.18.04.1 --toolchain=hardened --libdir=/usr/lib/x86_64-linux-gnu --incdir=/usr/include/x86_64-linux-gnu --enable-gpl --disable-stripping --enable-avresample --enable-avisynth --enable-gnutls --enable-ladspa --enable-libass --enable-libbluray --enable-libbs2b --enable-libcaca --enable-libcdio --enable-libflite --enable-libfontconfig --enable-libfreetype --enable-libfribidi --enable-libgme --enable-libgsm --enable-libmp3lame --enable-libmysofa --enable-libopenjpeg --enable-libopenmpt --enable-libopus --enable-libpulse --enable-librubberband --enable-librsvg --enable-libshine --enable-libsnappy --enable-libsoxr --enable-libspeex --enable-libssh --enable-libtheora --enable-libtwolame --enable-libvorbis --enable-libvpx --enable-libwavpack --enable-libwebp --enable-libx265 --enable-libxml2 --enable-libxvid --enable-libzmq --enable-libzvbi --enable-omx --enable-openal --enable-opengl --enable-sdl2 --enable-libdc1394 --enable-libdrm --enable-libiec61883 --enable-chromaprint --enable-frei0r --enable-libopencv --enable-libx264 --enable-shared --enable-version3 --disable-doc --disable-programs --enable-libopencore_amrnb --enable-libopencore_amrwb --enable-libtesseract --enable-libvo_amrwbenc
  libavutil      55. 78.100 / 55. 78.100
  libavcodec     57.107.100 / 57.107.100
  libavformat    57. 83.100 / 57. 83.100
  libavdevice    57. 10.100 / 57. 10.100
  libavfilter     6.107.100 /  6.107.100
  libavresample   3.  7.  0 /  3.  7.  0
  libswscale      4.  8.100 /  4.  8.100
  libswresample   2.  9.100 /  2.  9.100
  libpostproc    54.  7.100 / 54.  7.100
Input #0, mov,mp4,m4a,3gp,3g2,mj2, from '/home/aiva/Videos/pc149-2019015_Appliの解説_00000.mp4':
  Metadata:
    major_brand     : mp42
    minor_version   : 0
    compatible_brands: mp42mp41isomiso2
    creation_time   : 2019-01-14T22:04:46.000000Z
    encoder         : x264
  Duration: 00:36:51.00, start: 0.000000, bitrate: 563 kb/s
    Stream #0:0(und): Video: h264 (High 4:4:4 Predictive) (avc1 / 0x31637661), yuv444p(tv, bt709), 1680x1050 [SAR 1:1 DAR 8:5], 448 kb/s, 1 fps, 1 tbr, 100 tbn, 2 tbc (default)
    Metadata:
      creation_time   : 2019-01-14T22:04:47.000000Z
      handler_name    : VideoHandler
    Stream #0:1(und): Audio: mp3 (mp4a / 0x6134706D), 44100 Hz, mono, s16p, 113 kb/s (default)
    Metadata:
      creation_time   : 2019-01-14T22:04:47.000000Z
      handler_name    : SoundHandler
Stream mapping:
  Stream #0:0 -> #0:0 (h264 (native) -> h264 (libx264))
  Stream #0:1 -> #0:1 (mp3 (native) -> aac (native))
Press [q] to stop, [?] for help
Too many packets buffered for output stream 0:1.
[aac @ 0x5609e8b3e8a0] Qavg: 58114.961
[aac @ 0x5609e8b3e8a0] 2 frames left in the queue on closing
Conversion failed!

オフライン

 

#2 2019-01-15 11:01:43

hotohoto
メンバ
登録日: 2009-07-04

Re: ffmpeg でエラーが出る。出来る時もあれば出来ない時もあり

コード:

ffmpeg -i INPUT.mp4 -acodec coy OUTPUT.flv

してみても

コード:

  Stream #0:1 -> #0:1 (copy)
Press [q] to stop, [?] for help
Too many packets buffered for output stream 0:1.

となりました。

AV のパケットが多すぎる? ようです。

オフライン

 

#3 2019-01-15 14:06:08

hotohoto
メンバ
登録日: 2009-07-04

Re: ffmpeg でエラーが出る。出来る時もあれば出来ない時もあり

hotohoto です。

Too many packets buffered for output stream 0:1.

を検索しました。
その結果
(2019/01/15時点)の ffmpeg の バージョンではこのエラーが出やすいようです。

そこで、対症療法

コード:

-max_muxing_queue_size 1024

を入れてみました。

その結果:
このおかげで、エラーが出なくなりました。
しかしながら副作用も有るようです。
副作用は一時的にバッファを多く用意することになり、少ない搭載メモリの場合、
メモリの過大使用となってフリーズすることに繋がるようです。

経験者の方の推測:
どうやら仮想メモリに移動できないからではないか?
と言う書込がありました。

根本療法:
不明です。といあえず出来る内はやってみようと思います。

一応自己解決とさせていただきます。
お騒がせいたしました。

by hotohoto

オフライン

 

Board footer

Powered by FluxBB