お知らせ

  • 利用規約を守って投稿してください。また、よくある質問および投稿の手引きも参照してください。
  • メッセージの投稿にはアカウントが必要です。未登録の方は、ユーザ登録ページからアカウントを作成することができます。

#1 2009-12-25 15:46:10

ishikawatmc2
メンバ
登録日: 2009-08-20

flvファイルから音声のみを抽出できますか?

YouTube等の動画フォーマットであるflvファイルから、音声のみを抽出しmp3等で保存することは出来ますでしょうか。

よろしくお願い致します。

オフライン

 

#2 2009-12-25 15:52:05

yama
メンバ
登録日: 2006-10-23

Re: flvファイルから音声のみを抽出できますか?

http://ubulog.blogspot.com/2007/11/ubuntuflvmp3.html
でどうでしょう。

オフライン

 

#3 2009-12-25 18:17:13

vbk
メンバ
From: Lake Hamana in Hamamatsu
登録日: 2009-12-22

Re: flvファイルから音声のみを抽出できますか?

Youtubeの動画に限るのであれば、ダウンロードと変換を同時に行ってくれる「Dirpy」というWebサービスがあります。
http://www.dirpy.com/

オフライン

 

#4 2009-12-25 18:29:57

Firecat
メンバ
登録日: 2009-11-07

Re: flvファイルから音声のみを抽出できますか?

ffmpegを使ってのコマンド以外もあります。

avidemuxが使えます。(Ubuntuのソフトウェアからインストールできます。GTK+版前提での説明です。)
音声を抽出したいflvファイルをavidemuxで開き、上のメニューの音声(A) → 保存(A)でファイル名(拡張子も)を付け保存します。
flvなのでmp3だとは思いますが、音の種類が何なのかを確認する場合は、左上のファイル(F) → プロパティ(T)で判ります。

他にはffmpegをGUIで扱えるWinFFがあります。
これは抽出と言うよりは変換してると思います。(知り尽くしてないので詳しくは判りません。)

オフライン

 

#5 2009-12-25 18:30:44

zagan
メンバ
登録日: 2008-08-12

Re: flvファイルから音声のみを抽出できますか?

GUIなものだと、「WinFF」というものがあります。
Synapticから「winff」をインストール。

オフライン

 

#6 2009-12-25 20:34:31

ishikawatmc2
メンバ
登録日: 2009-08-20

Re: flvファイルから音声のみを抽出できますか?

こんにちは。
皆様、音声抽出方法をご教示頂きまして、誠にありがとうございます。

WinFFで試してみましたら、以下メッセージが表示されmp3に変換できませんでした。
「Unknown encoder 'libmp3lame'」とはどのような不具合かご教示頂けませんでしょうか。

よろしくお願い致します。


Seems stream 0 codec frame rate differs from container frame rate: 30.00 (30/1) -> 15.00 (15/1)
Input #0, flv, from '/home/ubuntu/デスクトップ/01-01.flv':
  Duration: 00:09:14.00, start: 0.000000, bitrate: 133 kb/s
    Stream #0.0: Video: h264, yuv420p, 320x240 [PAR 1:1 DAR 4:3], 133 kb/s, 15 tbr, 1k tbn, 30 tbc
    Stream #0.1: Audio: aac, 44100 Hz, stereo, s16
Unknown encoder 'libmp3lame'
Press Enter to Continue

オフライン

 

#7 2009-12-25 20:55:08

zagan
メンバ
登録日: 2008-08-12

Re: flvファイルから音声のみを抽出できますか?

なんかMLにながれてたなと思い出して検索してみました。
MLogサイトで確認できます。
いかがでしょうか?

オフライン

 

#8 2009-12-25 21:05:09

Firecat
メンバ
登録日: 2009-11-07

Re: flvファイルから音声のみを抽出できますか?

音声がAACのFLVファイルなのでしょうか。

WinFFは大抵変換できる筈ですが、詳しくないので判りませんが、もしかして libmp3lame0 がインストールされてないのですか。

オフライン

 

#9 2009-12-25 22:18:04

ishikawatmc2
メンバ
登録日: 2009-08-20

Re: flvファイルから音声のみを抽出できますか?

こんにちは。

libmp3lame0を再インストールし、WinFFで試しましたら、「Unknown encoder 'libmp3lame'」と表示され、変換出来ませんでした。

Avidemuxで試しましたら、「このファイル用の音声デコーダが見付かりません。(A+V)保存は悪いAVIを作り出します。音声保存は動作します。」と表示され、変換出来ませんでした。

お助け頂けませんでしょうか。
よろしくお願い申し上げます。

オフライン

 

#10 2009-12-25 22:36:23

zagan
メンバ
登録日: 2008-08-12

Re: flvファイルから音声のみを抽出できますか?

#7で書いたリンク先に「libavformat-extra-52」をインストールとあります。試してみられてはいかがでしょう。

オフライン

 

#11 2009-12-25 23:26:47

Firecat
メンバ
登録日: 2009-11-07

Re: flvファイルから音声のみを抽出できますか?

質問の音声のみを抽出とあったのでAvidemuxを書き込みましたが無視してください。((A+V)保存は悪いAVIを作り出します・・・はファイルの種類によっては表示されるので得に問題ありません。)

試しに、YouTubeから同じ類の動画をWinFFでmp3へ変換しましたが、問題なくできました。
WinFFの下にあるOutput DetailsのConvert To...は選ばないかAudioかどちらでも構いませんが、Device PresetはMP3を選択しましたでしょうか。(右上のOptionsから詳細設定ができます。)
それでも駄目でしたら私には判りません。

因みに試した時のWinFFは、Ubuntu 9.10 Ubuntuソフトウェアセンターからインストールしました。
(http://winff.org/html_new/からインストールする方が最新版かも知れません。)

オフライン

 

#12 2009-12-25 23:30:06

Firecat
メンバ
登録日: 2009-11-07

Re: flvファイルから音声のみを抽出できますか?

因みに試した時のWinFFは、Ubuntu 9.10 Ubuntuソフトウェアセンターからインストールしました。
http://winff.org/html_new/
↑からインストールする方が最新版かも知れません。

(#11で表示がおかしいので追記です)

オフライン

 

#13 2009-12-26 08:48:13

ishikawatmc2
メンバ
登録日: 2009-08-20

Re: flvファイルから音声のみを抽出できますか?

こんにちは。

libavformat-extra-52をインストールしましたら、WinFFでmp3に変換できました。
ご協力頂きました皆さま、誠にありがとうございます。

オフライン

 

Board footer

Powered by FluxBB